THE BATTLE OF BRITAIN-1969-H.264-AAC-MP4+SUBS@ RELEASE BY THE_ST

Video > Handheld



SIZE: 901.74MiB






Description


The Battle of Britain is a classic movie about one of the key battles of World War 2. It stands up there with the epics The Longest Day, Tora,Tora, Tora and a Bridge Too Far. The all-star cast has well known and lesser known English, Canadian, German and others actors who play their roles well. The movie does a good job of portaying both sides of the battle. The special effects and the air battles hold up well after well over 30 years. The criticisms that people have to me are quite unfair. As for charcter development, the movie is about the battle, much like the Longest Day was and there was no time to develop that part of the movie because it focused on the entirety of the battle. Also this is not like Cross of Iron that someone compared it to. Cross of Iron was a fictious story, while this is done in semi-docudrama style.It is an unfair comparison. The best comparison would be with the three previously listed movies. I liked that fact that some big stars characters did get hurt or died just like many of the better pilots did in the the battle and the war. The movie gives an excellent overview of the battle, much like the other movies listed here. I like the fact about the bit of English snobbery concerning the foreign pilots that they were training even if some were as good or better than they were.This is a four star war movie obout Britains Finest Hour. Where if it wasn't for the Brits holding off the German's, the Allies would not have been able to launch D-Day against the German's. The movie showed bravery and courage from both sides men and pilots. It is a great portrayal of young men in battle as knights of the early war skies

Format : MPEG-4
Format profile : Base Media / Version 2
Codec ID : mp42
File size : 899 MiB
Duration : 2h 6mn
Overall bit rate : 990 Kbps
Encoded date : UTC 2009-07-06 03:38:02
Tagged date : UTC 2009-07-06 08:32:51
Writing application : HandBrake 0.9.3 2008112300

Video
ID : 1
Format : AVC
Format/Info : Advanced Video Codec
Format profile : Main@L4.0
Format settings, CABAC : Yes
Format settings, ReFrames : 3 frames
Codec ID : avc1
Codec ID/Info : Advanced Video Coding
Duration : 2h 6mn
Bit rate mode : Variable
Bit rate : 827 Kbps
Width : 718 pixels
Height : 434 pixels
Display aspect ratio : 2.35
Frame rate mode : Variable
Frame rate : 25.000 fps
Minimum frame rate : 12.500 fps
Maximum frame rate : 25.000 fps
Resolution : 24 bits
Colorimetry : 4:2:0
Scan type : Progressive
Bits/(Pixel*Frame) : 0.106
Stream size : 751 MiB (83%)
Writing library : x264 core 65

Audio
ID : 2
Format : AAC
Format/Info : Advanced Audio Codec
Format version : Version 4
Format profile : LC
Format settings, SBR : No
Codec ID : 40
Duration : 2h 6mn
Bit rate mode : Variable
Bit rate : 160 Kbps
Maximum bit rate : 246 Kbps
Channel(s) : 2 channels
Channel positions : L R
Sampling rate : 48.0 KHz
Resolution : 16 bits
Stream size : 145 MiB (16%)
Language : English



Comments





Tags


Download THE BATTLE OF BRITAIN-1969-H.264-AAC-MP4 + SUBS katproxy.comthe-battle - of-britain-1969-h-264-aac-mp4 - subs - release Download THE BATTLE OF BRITAIN-1969-H.264-AAC-MP4+SUBS@ RELEASE BY THE_ST torrent or any other torrent from Other Movies category. Direct download via HTTP available THE BATTLE OF BRITAIN-1969-H.264-AAC-MP4 + SUBS @ RELEASE BY THE thepiratebay.seTHE_​BATTLE _OF_​BRITAIN-1969-H.264THE BATTLE OF BRITAIN-1969-H.264-AAC-MP4+SUBS@ RELEASE BY THE_ST Type: Video > Handheld Files: 5 Size: 901.74 MiB (945543118 Bytes) Spoken language(s): English THE BATTLE OF BRITAIN 1969 H.264 AAC MP4 + SUBS @ RELEASE BY THE dev.torrentz.proTHE-BATTLE - OF-BRITAIN-1969-H.264-AAC-MP4 %​2B SUBS Torrentz.pro - Fast and convenient Torrents Search Engine. THE BATTLE OF BRITAIN 1969 H.264 AAC MP4+SUBS@ RELEASE BY THE ST . hash THE BATTLE OF BRITAIN-1969-H.264-AAC-MP4 + SUBS @ RELEASE BY THE torrentz.euTorrent Contents. THE BATTLE OF BRITAIN-1969-H.264-AAC-MP4 + SUBS @ RELEASE BY THE_STIG; BATTLE OF BRITAIN 1969 .srt 0 MB; Torrent downloaded from Demonoid.com-1.txt 0 MB Subscene - Passionate about good closed captioning and subtitles subs cene.comsubtitles release .aspx?​q= THE+BATTLE +OF+BRITAIN-1969-H85 subtitles The 40 Year Old Virgin 62 subtitles Battle of Britain (1969) 23 subtitles Battle of Wits AKA Battle of the Searching for release name? THE BATTLE OF BRITAIN-1969-H.264-AAC-MP4 + SUBS @ RELEASE BY THE THE-BATTLE -OF-BRITAIN-1969-Hdownload THE BATTLE OF BRITAIN-1969-H.264-AAC-MP4 + SUBS @ RELEASE BY THE_STIGtorrent for free, THE BATTLE OF BRITAIN-1969-H.264-AAC-MP4 + SUBS @ RELEASE BY THE_STIG Direct Download THE BATTLE OF BRITAIN-1969-H.264-AAC-MP4 + SUBS the-battle - of-britain-1969-h-264-aac-mp4 Direct Download THE BATTLE OF BRITAIN-1969-H.264-AAC-MP4 + SUBS @ RELEASE BY THE_STIG Torrent for Bittorrent Downloading 902.00M mp4 files THE BATTLE OF BRITAIN-1969-H.264-AAC-MP4 + SUBS @ RELEASE BY THE torrentcrazy.comthe-battle -of-britain-1969-h.264This torrent has been verified by our users, it is safe to download: Download THE BATTLE OF BRITAIN-1969-H.264-AAC-MP4 + SUBS @ RELEASE BY THE_STIG Now THE BATTLE OF BRITAIN 1969 H 264 AAC MP4 + SUBS @ RELEASE BY THE STIG torrentproject.comseeds:4 leech:1 901.74 mb the battle of britain 1969 h 264 aac mp4 + subs @ release by the stig . the battle of britain-1969-h.264-aac-mp4 + subs @ release by the stig THE BATTLE OF BRITAIN-1969-H 264-AAC-MP4 + SUBS @ RELEASE BY THE THE-BATTLE -OF-BRITAIN-1969Download THE BATTLE OF BRITAIN-1969-H 264-AAC-MP4 + SUBS @ RELEASE BY THE STIG from Torrent Reactor torrents database or choose analog in Movies Pagination 1 2 3 4 5 Next
cde:QzpcIVBBUlNFXDIwNlw1Y2QxY3ZqNmMudHh0:cde